home - dnb.in.ua - drum and bass in Ukraine - drum and bass

   
  home - dnb.in.ua - drum and bass in Ukraine - drum and bass
info
events
production
press
forum
shop
dnb.in.ua RSS feeds - news and events
  home - dnb.in.ua - drum and bass in Ukraine - drum and bass
Բ
Ʋ

²
’
ϲ

 
 
Reply to this topicStart new topic
 Panorama Podcast 073 by Derrick And Tonika, Bassdrive Radio 01 nov 2012
.
Tonika User is offline
post Nov 19 2012, 18:07
Post #1

drum'n'bass lady
*******

Group: dnb.in.ua team
Posts: 2180
Joined: 25 November 2003
From: Lviv, Ukraine





Panorama Podcast 073 by Derrick And Tonika
Bassdrive Radio 01 nov 2012


IPB Image

01 Derrick & Tonika - Monologue
02 Bal - Out There
03 Clarity - Cold Blank
04 Getz - Wach In The Stars
05 Loxy And Resound - Tropopause
06 Asc - Snow Wolf
07 Random Movement - ThoughtLust
08 Raw Q - Sweet Pea - Intrigue Music
09 Codeshaper - Purple Alien
10 Paradox - MARXISM
11 EastColors - Confusion - Digital Master
12 Dayni - Fierce Battle
13 Fields & Hydro & Mako & Villem - Dissolve
14 Need For Mirrors - Domo
15 Silent Witness & Break - The Hills Have Ears

Welcome To Download



I'M YOUR DRUMANDBASSSISTA

Tonika on Myspace
Tonika on Topdj
Tonika - artist of OsirisMusic UK

IPB Image

Derrick & Tonika new releases>>>>Defcom.OsirisMusicUk.Architecture.Fokuz.Rubik.DNBS

IPB Image
Profile CardPM
Go to the top of the page
+Quote Post
_0_ User is offline
post Nov 28 2012, 01:17
Post #2

Junior Souljah
*

Group: Jungle Massive
Posts: 14
Joined: 12 October 2010





I'm going MAD from Chapters smile.gif

CODE
01    00:00:00    Derrick & Tonika ― Monologue (5:58)
02    05:58:26    Bal ― Out There (4:24)
03    10:22:35    Clarity ― Cold Blank (3:19)
04    13:41:37    Getz ― Wach In The Stars (4:32)
05    18:13:34    Loxy And Resound ― Tropopause (5:02)
06    23:15:26    Asc ― Snow Wolf (3:41)
07    26:56:16    Random Movement ― ThoughtLust (4:02)
08    30:57:71    Raw Q ― Sweet Pea [Intrigue Music] (4:32)
09    35:30:29    Codeshaper ― Purple Alien (7:00)
10    42:30:01    Paradox ― Marxism (1:50)
11    44:19:57    EastColors ― Confusion [Digital Master] (4:01)
12    48:21:17    Dayni ― Fierce Battle (4:23)
13    52:44:31    Fields & Hydro & Mako & Villem ― Dissolve (3:40)
14    56:24:06    Need For Mirrors ― Domo (3:37)


CUESHEET.CUE
CODE
PERFORMER "Derrick And Tonika"
TITLE "Panorama Podcast 073 by Derrick And Tonika Bassdrive Radio 01 nov 2012"
REM DATE "1 Nov 2012"
REM COMMENT "http://www.topdj.ua/"
REM REPLAYGAIN_ALBUM_GAIN -9.05 dB
REM REPLAYGAIN_ALBUM_PEAK 1.230685
FILE "Panorama Podcast #073 by Derrick And Tonika Bassdrive Radio 01 nov 2012.mp3" WAVE
  TRACK 01 AUDIO
    TITLE "Monologue"
    PERFORMER "Derrick & Tonika"
    REM REPLAYGAIN_TRACK_GAIN -9.03 dB
    REM REPLAYGAIN_TRACK_PEAK 1.171826
    INDEX 01 00:00:00
  TRACK 02 AUDIO
    TITLE "Out There"
    PERFORMER "Bal"
    REM REPLAYGAIN_TRACK_GAIN -8.75 dB
    REM REPLAYGAIN_TRACK_PEAK 1.158309
    INDEX 01 05:58:26
  TRACK 03 AUDIO
    TITLE "Cold Blank"
    PERFORMER "Clarity"
    REM REPLAYGAIN_TRACK_GAIN -8.60 dB
    REM REPLAYGAIN_TRACK_PEAK 1.127930
    INDEX 01 10:22:35
  TRACK 04 AUDIO
    TITLE "Wach In The Stars"
    PERFORMER "Getz"
    REM REPLAYGAIN_TRACK_GAIN -9.60 dB
    REM REPLAYGAIN_TRACK_PEAK 1.100335
    INDEX 01 13:41:37
  TRACK 05 AUDIO
    TITLE "Tropopause"
    PERFORMER "Loxy And Resound"
    REM REPLAYGAIN_TRACK_GAIN -9.12 dB
    REM REPLAYGAIN_TRACK_PEAK 1.161139
    INDEX 01 18:13:34
  TRACK 06 AUDIO
    TITLE "Snow Wolf"
    PERFORMER "Asc"
    REM REPLAYGAIN_TRACK_GAIN -8.81 dB
    REM REPLAYGAIN_TRACK_PEAK 1.119877
    INDEX 01 23:15:26
  TRACK 07 AUDIO
    TITLE "ThoughtLust"
    PERFORMER "Random Movement"
    REM REPLAYGAIN_TRACK_GAIN -9.04 dB
    REM REPLAYGAIN_TRACK_PEAK 1.230685
    INDEX 01 26:56:16
  TRACK 08 AUDIO
    TITLE "Sweet Pea - Intrigue Music"
    PERFORMER "Raw Q"
    REM REPLAYGAIN_TRACK_GAIN -9.31 dB
    REM REPLAYGAIN_TRACK_PEAK 1.193649
    INDEX 01 30:57:71
  TRACK 09 AUDIO
    TITLE "Purple Alien"
    PERFORMER "Codeshaper"
    REM REPLAYGAIN_TRACK_GAIN -8.40 dB
    REM REPLAYGAIN_TRACK_PEAK 1.133681
    INDEX 01 35:30:29
  TRACK 10 AUDIO
    TITLE "Marxism"
    PERFORMER "Paradox"
    REM REPLAYGAIN_TRACK_GAIN -9.15 dB
    REM REPLAYGAIN_TRACK_PEAK 1.117207
    INDEX 01 42:30:01
  TRACK 11 AUDIO
    TITLE "Confusion - Digital Master"
    PERFORMER "EastColors"
    REM REPLAYGAIN_TRACK_GAIN -9.19 dB
    REM REPLAYGAIN_TRACK_PEAK 1.164535
    INDEX 01 44:19:57
  TRACK 12 AUDIO
    TITLE "Fierce Battle"
    PERFORMER "Dayni"
    REM REPLAYGAIN_TRACK_GAIN -9.99 dB
    REM REPLAYGAIN_TRACK_PEAK 1.081112
    INDEX 01 48:21:17
  TRACK 13 AUDIO
    TITLE "Dissolve"
    PERFORMER "Fields & Hydro & Mako & Villem"
    REM REPLAYGAIN_TRACK_GAIN -9.07 dB
    REM REPLAYGAIN_TRACK_PEAK 1.098791
    INDEX 01 52:44:31
  TRACK 14 AUDIO
    TITLE "Domo"
    PERFORMER "Need For Mirrors"
    REM REPLAYGAIN_TRACK_GAIN -8.58 dB
    REM REPLAYGAIN_TRACK_PEAK 1.117861
    INDEX 01 56:24:06





OK, let's create podcast with chapters:
  1. Get qaac command line encoder (http://sites.google.com/site/qaacpage/cabinet)
  2. Check the inputs sources: cuesheet.cue (FILE "podcast.wav" WAVE), podcast.wav, podcast_cover.jpg
  3. qaac --quality 2 --tvbr 127 --cbr 192 --text-codepage 65001 --comment "WARNING TRANSCODING: mp3 cbr256kbps > AAC cbr192kbps" --date --genre=Electronic --compilation=1 --concat-cuesheet --artwork podcast_cover.jpg cuesheet.cue -o "Derrick & Tonika ― Panorama Podcast #073 by Derrick And Tonika.m4a"
  4. Finally, check out file: http://soundcloud.com/qaac-cbr192...podcast-73/download

IPB Image

This post has been edited by _0_: Nov 28 2012, 01:54
Profile CardPM
Go to the top of the page
+Quote Post

Reply to this topicStart new topic
1 User(s) are reading this topic (1 Guests and 0 Anonymous Users)
0 Members:

 

- Lo-Fi Version Time is now: 15th December 2017 - 15:43
Skin creation by Groffy at Enhanced Pixels & Tonika at dnb.in.ua

Welcome Guest
( Log In | Register )



login
password


advanced search




maillist

© dnb.in.ua™, 2002-2017

  partners:

InClub.com.ua - Ukrainian Club Portal        !

logo : cdr
ai
png 

© dnb.in.ua™, 2002-2017