home - dnb.in.ua - drum and bass in Ukraine - drum and bass

   
  home - dnb.in.ua - drum and bass in Ukraine - drum and bass
info
events
production
press
forum
shop
dnb.in.ua RSS feeds - news and events
  home - dnb.in.ua - drum and bass in Ukraine - drum and bass
Բ
Ʋ

²
’
ϲ

 
 
Reply to this topicStart new topic
 Panorama Podcast 072 by Derrick And Tonika, Bassdrive Radio 18 oct 2012
.
Tonika User is offline
post Nov 9 2012, 21:04
Post #1

drum'n'bass lady
*******

Group: dnb.in.ua team
Posts: 2179
Joined: 25 November 2003
From: Lviv, Ukraine





Panorama Podcast 072 by Derrick And Tonika
Bassdrive Radio 18 oct 2012


IPB Image

001. Bo Saris - She's On Fire (Calibre Remix)
002. Eastcolors - Go To Nowhere
003. Tokyo Prose - Reach
004. B_Cloud - Deeper (Enei Remix)
005. Dramatic and Dbaudio - The Pretender
006. Duoscience feat. Scott Allen - I found you
007. S.P.Y - Love Hurts
008. Raw Q - Everyday Soul
009. Rowpieces - Nisa
010. Sunny Crimea ft Derrick & Tonika - Nothing In This World
011. Against and Scott Allen - Dangerous Blues
012. Dynamic and Command Strange - Jazzmine
013. Blade - Mcnallys Theme
014. Clarity, Eastcolors - Someone To Count On feat. Clarity
015. Roni Size - Its Jazzy


[url=http://topdj.ua/get-mp3/137404_topdj_ua_-_dj_Tonika_-_Panorama_Podcast_072_Bassdrive_Radio_18_oct_2012_by_Derrick-Tonika.mp3]Welcome To Download]Welcome To Download[/url][/b]



I'M YOUR DRUMANDBASSSISTA

Tonika on Myspace
Tonika on Topdj
Tonika - artist of OsirisMusic UK

IPB Image

Derrick & Tonika new releases>>>>Defcom.OsirisMusicUk.Architecture.Fokuz.Rubik.DNBS

IPB Image
Profile CardPM
Go to the top of the page
+Quote Post
_0_ User is offline
post Nov 12 2012, 03:35
Post #2

Junior Souljah
*

Group: Jungle Massive
Posts: 14
Joined: 12 October 2010





I'm going MAD from Chapters smile.gif

CODE
01    00:00:00    Bo Saris ― She's On Fire (Calibre Remix) (5:25)
02    05:24:38    Eastcolors ― Go To Nowhere (4:20)
03    09:44:15    Tokyo Prose ― Reach (3:36)
04    13:20:41    B Cloud ― Deeper (Enei Remix) (3:36)
05    16:56:67    dRamatic & dbAudio ― The Pretender (5:45)
06    22:41:47    Duoscience feat. Scott Allen ― I Found You (3:38)
07    26:19:17    S.P.Y ― Love Hurts (3:58)
08    30:17:17    Raw Q ― Everyday Soul (4:41)
09    34:58:29    Rowpieces ― Nisa (5:24)
10    40:22:52    Sunny Crimea feat. Derrick & Tonika ― Nothing In This World (3:58)
11    44:20:48    Against and Scott Allen ― Dangerous Blues (5:03)
12    49:23:38    Dynamic and Command Strange ― Jazzmine (2:53)
13    52:16:70    Blade ― McNally's Theme (3:36)
14    55:52:74    Eastcolors feat. Clarity ― Someone To Count On (1:50)
15    57:43:15    Roni Size ― It's Jazzy (2:27)


CUESHEET.CUE
CODE
PERFORMER "Derrick And Tonika"
TITLE "Panorama Podcast 072 by Derrick And Tonika Bassdrive Radio 18 oct 2012"
REM DATE "9 Nov 2012"
REM COMMENT "http://www.topdj.ua/"
REM REPLAYGAIN_ALBUM_GAIN -10.73 dB
REM REPLAYGAIN_ALBUM_PEAK 1.230955
FILE "Panorama Podcast #072 by Derrick And Tonika.mp3" WAVE
  TRACK 01 AUDIO
    TITLE "She's On Fire (Calibre Remix)"
    PERFORMER "Bo Saris"
    REM REPLAYGAIN_TRACK_GAIN -11.40 dB
    REM REPLAYGAIN_TRACK_PEAK 1.178894
    INDEX 01 00:00:00
  TRACK 02 AUDIO
    TITLE "Go To Nowhere"
    PERFORMER "Eastcolors"
    REM REPLAYGAIN_TRACK_GAIN -11.06 dB
    REM REPLAYGAIN_TRACK_PEAK 1.122033
    INDEX 01 05:24:38
  TRACK 03 AUDIO
    TITLE "Reach"
    PERFORMER "Tokyo Prose"
    REM REPLAYGAIN_TRACK_GAIN -10.17 dB
    REM REPLAYGAIN_TRACK_PEAK 1.136088
    INDEX 01 09:44:15
  TRACK 04 AUDIO
    TITLE "Deeper (Enei Remix)"
    PERFORMER "B Cloud"
    REM REPLAYGAIN_TRACK_GAIN -10.09 dB
    REM REPLAYGAIN_TRACK_PEAK 1.144894
    INDEX 01 13:20:41
  TRACK 05 AUDIO
    TITLE "The Pretender"
    PERFORMER "dRamatic & dbAudio"
    REM REPLAYGAIN_TRACK_GAIN -11.55 dB
    REM REPLAYGAIN_TRACK_PEAK 1.149487
    INDEX 01 16:56:67
  TRACK 06 AUDIO
    TITLE "I Found You"
    PERFORMER "Duoscience feat. Scott Allen"
    REM REPLAYGAIN_TRACK_GAIN -10.01 dB
    REM REPLAYGAIN_TRACK_PEAK 1.151820
    INDEX 01 22:41:47
  TRACK 07 AUDIO
    TITLE "Love Hurts"
    PERFORMER "S.P.Y"
    REM REPLAYGAIN_TRACK_GAIN -9.64 dB
    REM REPLAYGAIN_TRACK_PEAK 1.111319
    INDEX 01 26:19:17
  TRACK 08 AUDIO
    TITLE "Everyday Soul"
    PERFORMER "Raw Q"
    REM REPLAYGAIN_TRACK_GAIN -10.23 dB
    REM REPLAYGAIN_TRACK_PEAK 1.197230
    INDEX 01 30:17:17
  TRACK 09 AUDIO
    TITLE "Nisa"
    PERFORMER "Rowpieces"
    REM REPLAYGAIN_TRACK_GAIN -11.10 dB
    REM REPLAYGAIN_TRACK_PEAK 1.230955
    INDEX 01 34:58:29
  TRACK 10 AUDIO
    TITLE "Nothing In This World"
    PERFORMER "Sunny Crimea feat. Derrick & Tonika"
    REM REPLAYGAIN_TRACK_GAIN -10.89 dB
    REM REPLAYGAIN_TRACK_PEAK 1.119078
    INDEX 01 40:22:52
  TRACK 11 AUDIO
    TITLE "Dangerous Blues"
    PERFORMER "Against and Scott Allen"
    REM REPLAYGAIN_TRACK_GAIN -10.35 dB
    REM REPLAYGAIN_TRACK_PEAK 1.192090
    INDEX 01 44:20:48
  TRACK 12 AUDIO
    TITLE "Jazzmine"
    PERFORMER "Dynamic and Command Strange"
    REM REPLAYGAIN_TRACK_GAIN -10.44 dB
    REM REPLAYGAIN_TRACK_PEAK 1.143451
    INDEX 01 49:23:38
  TRACK 13 AUDIO
    TITLE "McNally's Theme"
    PERFORMER "Blade"
    REM REPLAYGAIN_TRACK_GAIN -10.70 dB
    REM REPLAYGAIN_TRACK_PEAK 1.174829
    INDEX 01 52:16:70
  TRACK 14 AUDIO
    TITLE "Someone To Count On"
    PERFORMER "Eastcolors feat. Clarity"
    REM REPLAYGAIN_TRACK_GAIN -10.95 dB
    REM REPLAYGAIN_TRACK_PEAK 1.148495
    INDEX 01 55:52:74
  TRACK 15 AUDIO
    TITLE "It's Jazzy"
    PERFORMER "Roni Size"
    REM REPLAYGAIN_TRACK_GAIN -10.99 dB
    REM REPLAYGAIN_TRACK_PEAK 1.171930
    INDEX 01 57:43:15




OK, let's create podcast with chapters:
  1. Get qaac command line encoder (http://sites.google.com/site/qaacpage/cabinet)
  2. Check the inputs sources: cuesheet.cue (FILE "podcast.wav" WAVE), podcast.wav, podcast_cover.jpg
  3. qaac --quality 2 --tvbr 127 --cbr 192 --text-codepage 65001 --comment "WARNING TRANSCODING: mp3 cbr256kbps > AAC cbr192kbps" --date 2012 --genre=Electronic --compilation=1 --concat-cuesheet --artwork podcast_cover.jpg cuesheet.cue -o "Derrick & Tonika ― Panorama Podcast #072 by Derrick And Tonika.m4a"
  4. Finally, check out file: http://soundcloud.com/qaac-cbr192...podcast-72/download

IPB Image

This post has been edited by _0_: Nov 28 2012, 01:57
Profile CardPM
Go to the top of the page
+Quote Post

Reply to this topicStart new topic
1 User(s) are reading this topic (1 Guests and 0 Anonymous Users)
0 Members:

 

- Lo-Fi Version Time is now: 20th October 2017 - 12:43
Skin creation by Groffy at Enhanced Pixels & Tonika at dnb.in.ua

Welcome Guest
( Log In | Register )



login
password


advanced search




maillist

© dnb.in.ua™, 2002-2017

  partners:

InClub.com.ua - Ukrainian Club Portal        !

logo : cdr
ai
png 

© dnb.in.ua™, 2002-2017