home - dnb.in.ua - drum and bass in Ukraine - drum and bass

   
  home - dnb.in.ua - drum and bass in Ukraine - drum and bass
info
events
production
press
forum
shop
dnb.in.ua RSS feeds - news and events
  home - dnb.in.ua - drum and bass in Ukraine - drum and bass
Բ
Ʋ

²
’
ϲ

 
 
Reply to this topicStart new topic
 Panorama Podcast 069 by Derrick And Tonika, Bassdrive Radio 16 aug 2012
.
Tonika User is offline
post Sep 18 2012, 00:01
Post #1

drum'n'bass lady
*******

Group: dnb.in.ua team
Posts: 2179
Joined: 25 November 2003
From: Lviv, Ukraine





Panorama Podcast 069 by Derrick And Tonika
Bassdrive Radio 16 aug 2012


IPB Image

01 Cursa - Feel It
02 Clart - Primo
03 Sunny Crimea - Stay With Me
04 Derrick & Tonika - Follow The Strars
05 Lm1 - On The Qt.mp3
06 Calyx & Teebee - Elevate This Sound
07 Incident - Promise
08 Pro Luxe - What I See
09 Msdos And Brokendrum - City Of Soul
10 Nutone - Ebb And Flow
11 Kyro - Spring Fever (Msdos remix)
12 Duoscience - Tell Me You
13 Karma - Little Ghetto Boy
14 Nookie - Only You (MSDOS & Ted Ganung Remix)
15 Atp & Jaybee - Truggernanna

Welcome To Download



I'M YOUR DRUMANDBASSSISTA

Tonika on Myspace
Tonika on Topdj
Tonika - artist of OsirisMusic UK

IPB Image

Derrick & Tonika new releases>>>>Defcom.OsirisMusicUk.Architecture.Fokuz.Rubik.DNBS

IPB Image
Profile CardPM
Go to the top of the page
+Quote Post
_0_ User is offline
post Sep 19 2012, 15:31
Post #2

Junior Souljah
*

Group: Jungle Massive
Posts: 14
Joined: 12 October 2010





I'm going MAD from Chapters smile.gif
IPB ImageIPB Image
CODE
01 00:00:00 Cursa - Feel It (5:25)
02 05:24:38 Clart - Primo (4:20)
03 09:44:01 Sunny Crimea - Stay With Me (4:20)
04 14:03:58 Derrick & Tonika - Follow The Stars (3:58)
05 18:01:62 Lm1 - On The Qt (4:47)
06 22:48:35 Calyx & Teebee - Elevate This Sound (3:15)
07 26:03:24 Incident - Promise (3:58)
08 30:01:28 Pro Luxe - What I See (3:58)
09 33:59:28 MsDos And Brokendrum - City Of Soul (5:03)
10 39:02:41 Nu:Tone - Ebb And Flow (3:36)
11 42:39:02 Kyro - Spring Fever (MsDos Remix) (4:41)
12 47:20:24 Duoscience - Tell Me You (3:47)
13 51:07:34 Karma - Little Ghetto Boy (4:06)
14 55:13:47 Nookie - Only You (MsDos & Ted Ganung Remix) (2:02)
15 57:15:27 Atp & Jaybee - Truggernanna (2:54)



IPB Image

CUESHEET.CUE
CODE
PERFORMER "Derrick And Tonika"
TITLE "Panorama Podcast 069 by Derrick And Tonika Bassdrive Radio 16 Aug 2012"
REM DATE "16 Aug 2012"
REM COMMENT "http://www.topdj.ua/"
REM REPLAYGAIN_ALBUM_GAIN -9.92 dB
REM REPLAYGAIN_ALBUM_PEAK 1.610415
FILE "Panorama Podcast 069 by Derrick And.mp3" WAVE
TRACK 01 AUDIO
PERFORMER "Cursa"
TITLE "Feel It"
REM REPLAYGAIN_TRACK_GAIN -8.70 dB
REM REPLAYGAIN_TRACK_PEAK 1.268912
INDEX 01 00:00:00
TRACK 02 AUDIO
PERFORMER "Clart"
TITLE "Primo"
REM REPLAYGAIN_TRACK_GAIN -8.35 dB
REM REPLAYGAIN_TRACK_PEAK 1.130312
INDEX 01 05:24:38
TRACK 03 AUDIO
PERFORMER "Sunny Crimea"
TITLE "Stay With Me"
REM REPLAYGAIN_TRACK_GAIN -9.89 dB
REM REPLAYGAIN_TRACK_PEAK 1.159500
INDEX 01 09:44:01
TRACK 04 AUDIO
PERFORMER "Derrick & Tonika"
TITLE "Follow The Stars"
REM REPLAYGAIN_TRACK_GAIN -10.04 dB
REM REPLAYGAIN_TRACK_PEAK 1.098163
INDEX 01 14:03:58
TRACK 05 AUDIO
PERFORMER "Lm1"
TITLE "On The Qt.mp3 ???????"
REM REPLAYGAIN_TRACK_GAIN -10.31 dB
REM REPLAYGAIN_TRACK_PEAK 1.160300
INDEX 01 18:01:62
TRACK 06 AUDIO
PERFORMER "Calyx & Teebee"
TITLE "Elevate This Sound"
REM REPLAYGAIN_TRACK_GAIN -10.05 dB
REM REPLAYGAIN_TRACK_PEAK 1.131702
INDEX 01 22:48:35
TRACK 07 AUDIO
PERFORMER "Incident"
TITLE "Promise"
REM REPLAYGAIN_TRACK_GAIN -11.74 dB
REM REPLAYGAIN_TRACK_PEAK 1.181682
INDEX 01 26:03:24
TRACK 08 AUDIO
PERFORMER "Pro Luxe"
TITLE "What I See"
REM REPLAYGAIN_TRACK_GAIN -10.56 dB
REM REPLAYGAIN_TRACK_PEAK 1.147974
INDEX 01 30:01:28
TRACK 09 AUDIO
PERFORMER "MsDos And Brokendrum"
TITLE "City Of Soul"
REM REPLAYGAIN_TRACK_GAIN -9.24 dB
REM REPLAYGAIN_TRACK_PEAK 1.118058
INDEX 01 33:59:28
TRACK 10 AUDIO
PERFORMER "Nu:Tone"
TITLE "Ebb And Flow"
REM REPLAYGAIN_TRACK_GAIN -9.87 dB
REM REPLAYGAIN_TRACK_PEAK 1.232244
INDEX 01 39:02:41
TRACK 11 AUDIO
PERFORMER "Kyro"
TITLE "Spring Fever (MsDos Remix)"
REM REPLAYGAIN_TRACK_GAIN -9.36 dB
REM REPLAYGAIN_TRACK_PEAK 1.319989
INDEX 01 42:39:02
TRACK 12 AUDIO
PERFORMER "Duoscience"
TITLE "Tell Me You"
REM REPLAYGAIN_TRACK_GAIN -10.25 dB
REM REPLAYGAIN_TRACK_PEAK 1.283622
INDEX 01 47:20:24
TRACK 13 AUDIO
PERFORMER "Karma"
TITLE "Little Ghetto Boy"
REM REPLAYGAIN_TRACK_GAIN -10.38 dB
REM REPLAYGAIN_TRACK_PEAK 1.126001
INDEX 01 51:07:34
TRACK 14 AUDIO
PERFORMER "Nookie"
TITLE "Only You (MsDos & Ted Ganung Remix)"
REM REPLAYGAIN_TRACK_GAIN -8.84 dB
REM REPLAYGAIN_TRACK_PEAK 1.134924
INDEX 01 55:13:47
TRACK 15 AUDIO
PERFORMER "Atp & Jaybee"
TITLE "Truggernanna"
REM REPLAYGAIN_TRACK_GAIN -10.51 dB
REM REPLAYGAIN_TRACK_PEAK 1.610415
INDEX 01 57:15:27



This post has been edited by _0_: Sep 21 2012, 15:09
Profile CardPM
Go to the top of the page
+Quote Post
_0_ User is offline
post Sep 23 2012, 15:21
Post #3

Junior Souljah
*

Group: Jungle Massive
Posts: 14
Joined: 12 October 2010





Yes,Yes get more hospitality drum 'n' bass
Amazing 'n' Sunshine album by Nu:Tone, released at march 2005 on Hospital Records
In the latest podcasts waiting S.P.Y What The Future Holds (2012) [NHS 219]

IPB Image
Profile CardPM
Go to the top of the page
+Quote Post

Reply to this topicStart new topic
1 User(s) are reading this topic (1 Guests and 0 Anonymous Users)
0 Members:

 

- Lo-Fi Version Time is now: 19th September 2017 - 19:13
Skin creation by Groffy at Enhanced Pixels & Tonika at dnb.in.ua

Welcome Guest
( Log In | Register )



login
password


advanced search




maillist

© dnb.in.ua™, 2002-2017

  partners:

InClub.com.ua - Ukrainian Club Portal        !

logo : cdr
ai
png 

© dnb.in.ua™, 2002-2017